İngiltere Premier Lig | Thailand | Иван Реон

Movies - Other

Suck It Up (2017) Eng Subs HDRip H264 MPEG-4 AAC Spy1984

  • Download 5x Faster
  • Download torrent
  • Direct Download
  • Rate this torrent +  |  -

Torrent info

Name:Suck It Up (2017) Eng Subs HDRip H264 MPEG-4 AAC Spy1984

Total Size: 428.39 MB

Magnet: Magnet Link

Seeds: 1

Leechers: 1

Stream: Watch Full Movie @ Movie4u

Last Updated: 2018-01-06 11:20:06 (Update Now)

Torrent added: 2018-01-06 11:20:04



VPN For Torrents

Torrent Files List


Suck It Up (2017).MP4 (Size: 428.39 MB) (Files: 2)

 Suck It Up (2017).MP4

428.32 MB

 Suck It Up (2017).srt

75.59 KB
 

tracker

leech seeds
 

Torrent description

Two best friends take off on a wild road trip to get over the death of the man they both loved.

http://www.4kw.in/4643.html

http://www.4kw.in/4644.html

http://www.4kw.in/4645.html

http://www.4kw.in/4646.html

General


Format : MPEG-4
Format profile : Base Media
Codec ID : isom (isom/iso2/avc1/mp41)
File size : 428 MiB
Duration : 1 h 43 min
Overall bit rate : 579 kb/s
Writing application : Lavf57.83.100

Video


ID : 1
Format : AVC
Format/Info : Advanced Video Codec
Format profile : [emailprotected]
Format settings : CABAC / 5 Ref Frames
Format settings, CABAC : Yes
Format settings, RefFrames : 5 frames
Codec ID : avc1
Codec ID/Info : Advanced Video Coding
Duration : 1 h 43 min
Bit rate : 512 kb/s
Width : 720 pixels
Height : 304 pixels
Display aspect ratio : 2.35:1
Frame rate mode : Constant
Frame rate : 23.976 (24000/1001) FPS
Color space : YUV
Chroma subsampling : 4:2:0
Bit depth : 8 bits
Scan type : Progressive
Bits/(Pixel*Frame) : 0.098
Stream size : 378 MiB (88%)


Audio


ID : 2
Format : AAC
Format/Info : Advanced Audio Codec
Format profile : LC
Codec ID : mp4a-40-2
Duration : 1 h 43 min
Duration_LastFrame : -11 ms
Bit rate mode : Constant
Bit rate : 64.7 kb/s
Channel(s) : 2 channels
Channel positions : Front: L R
Sampling rate : 48.0 kHz
Frame rate : 46.875 FPS (1024 SPF)
Compression mode : Lossy
Stream size : 47.8 MiB (11%)
Default : Yes
Alternate group : 1




ID : 2
Format : AAC
Format/Info : Advanced Audio Codec
Format profile : LC
Codec ID : mp4a-40-2
Duration : 1 h 34 min
Duration_LastFrame : -11 ms
Bit rate mode : Constant
Bit rate : 64.7 kb/s
Channel(s) : 2 channels
Channel positions : Front: L R
Sampling rate : 48.0 kHz
Frame rate : 46.875 FPS (1024 SPF)
Compression mode : Lossy
Stream size : 43.6 MiB (11%)
Default : Yes
Alternate group : 1

related torrents

Torrent name

health leech seeds Size
 


comments (0)

Main Menu